osu file format v14

[General]
AudioFilename: songg.mp3
AudioLeadIn: 1500
PreviewTime: 56514
Countdown: 0
SampleSet: Soft
StackLeniency: 0.7
Mode: 0
LetterboxInBreaks: 0
WidescreenStoryboard: 0

[Editor]
DistanceSpacing: 1
BeatDivisor: 4
GridSize: 4
TimelineZoom: 1

[Metadata]
Title:Yumemiru Onna no Ko
TitleUnicode:夢見る女の子
Artist:Keiichi OKU
ArtistUnicode:奥 慶一
Creator:DropTimes
Version:Easy
Source:おジャ魔女どれみ
Tags:original soundtrack bgm ojamajo doremi euny dreaming girl おジャ魔女どれみ おジャ魔女 BGMコレクション!! OST 東映アニメーション TOEI ANIMATION ost
BeatmapID:668938
BeatmapSetID:293558

[Difficulty]
HPDrainRate:2
CircleSize:2
OverallDifficulty:2
ApproachRate:3
SliderMultiplier:1.2
SliderTickRate:1

[Events]
//Background and Video events
0,0,"bg.jpg",0,0
//Break Periods
//Storyboard Layer 0 (Background)
//Storyboard Layer 1 (Fail)
//Storyboard Layer 2 (Pass)
//Storyboard Layer 3 (Foreground)
//Storyboard Sound Samples

[TimingPoints]
12038,697.674418604651,4,2,1,30,1,0
56689,-100,4,2,1,50,0,1
90177,-100,4,2,1,20,0,0
91572,-100,4,2,1,10,0,0
92968,-100,4,2,1,5,0,0

[Colours]
Combo1 : 244,248,184
Combo2 : 228,109,210
Combo3 : 242,140,57
Combo4 : 75,83,231
Combo5 : 166,106,210
Combo6 : 233,228,75
Combo7 : 239,56,56

[HitObjects]
63,200,12038,5,2,0:0:0:0:
135,104,12735,2,0,B|160:96|194:111|194:111|208:74|228:61,2,120,12|0|8,0:0|0:0|0:0,0:0:0:0:
156,222,14828,2,0,B|156:314|256:314|256:314|344:314,1,240,2|0,0:0|0:0,0:0:0:0:
448,368,16921,1,8,0:0:0:0:
480,252,17619,5,6,0:0:0:0:
397,166,18317,1,8,0:0:0:0:
282,132,19014,2,0,B|270:76|270:76|299:15,2,120,0|8|2,0:0|0:0|0:0,0:0:0:0:
252,248,21107,1,8,0:0:0:0:
151,312,21805,2,0,B|111:342|57:337|22:307,1,120,0|8,0:0|0:0,0:0:0:0:
52,199,23200,5,6,0:0:0:0:
172,194,23898,1,8,0:0:0:0:
211,80,24596,2,0,B|257:91|286:132|287:175,1,120,0|8,0:0|0:0,0:0:0:0:
342,271,25991,2,0,B|381:250|402:211|403:171,2,120,2|8|0,0:0|0:0|0:0,0:0:0:0:
271,368,28084,1,8,0:0:0:0:
194,276,28782,6,0,B|154:264|106:276|106:276|86:252,1,120,6|8,0:0|0:0,0:0:0:0:
160,157,30177,2,0,B|116:125|116:73|116:73|88:57,2,120,0|8|2,0:0|0:0|0:0,0:0:0:0:
241,68,32270,1,8,0:0:0:0:
345,128,32968,2,0,B|392:125|432:157|444:199,2,120,0|8|6,0:0|0:0|0:0,0:0:0:0:
337,248,35061,6,0,B|285:264|233:236|233:236|181:280|193:360,2,240,8|8|8,0:0|0:0|0:0,0:0:0:0:
403,148,38549,1,0,0:0:0:0:
288,115,39247,2,0,B|296:79|312:59|312:59|332:47|376:31,2,120,8|2|8,0:0|0:0|0:0,0:0:0:0:
187,180,41340,6,0,L|67:180,1,120,2|8,0:0|0:0,0:0:0:0:
14,288,42735,1,2,0:0:0:0:
117,349,43433,2,0,B|237:365|237:365|345:301,1,240,8|8,0:0|0:0,0:0:0:0:
240,237,45526,5,6,0:0:0:0:
332,160,46224,2,0,B|357:119|352:70|325:36,2,120,8|0|8,0:0|0:0|0:0,0:0:0:0:
227,102,48317,2,0,B|181:110|181:110|138:105|138:105|75:126|75:126|46:156|46:156|2:176,2,240,2|8|6,0:0|0:0|0:0,0:0:0:0:
233,223,51805,6,0,L|220:353,2,120,8|0|8,0:0|0:0|0:0,0:0:0:0:
317,308,53898,1,2,0:0:0:0:
428,263,54596,2,0,B|406:200|340:165|274:179|234:221,1,240,8|0,0:0|0:0,0:0:0:0:
154,131,56689,5,6,0:0:0:0:
74,221,57386,2,0,B|40:193|26:149|34:110,2,120,8|2|8,0:0|0:0|0:0,0:0:0:0:
156,308,59479,2,0,B|200:283|254:299|280:339,1,120,2|8,0:0|0:0,0:0:0:0:
373,268,60875,1,2,0:0:0:0:
280,192,61572,1,8,0:0:0:0:
364,107,62270,6,0,B|317:56|239:51|182:94|165:153,1,240,6|0,0:0|0:0,0:0:0:0:
58,96,64363,1,8,0:0:0:0:
6,204,65061,2,0,B|44:248|44:248|50:321,1,120,2|8,0:0|0:0,0:0:0:0:
160,354,66456,2,0,L|280:306,1,120,0|8,0:0|0:0,0:0:0:0:
353,221,67851,6,0,B|407:191|407:191|465:186,2,120,6|8|2,0:0|0:0|0:0,0:0:0:0:
272,310,69944,1,8,0:0:0:0:
156,343,70642,2,0,B|104:311|104:311|36:303,2,120,2|8|0,0:0|0:0|0:0,0:0:0:0:
232,250,72735,1,8,0:0:0:0:
329,321,73433,6,0,B|369:281|369:281|389:217,1,120,4|8,0:0|0:0,0:0:0:0:
369,102,74828,2,0,B|325:102|294:133|294:133|254:124,1,120,0|8,0:0|0:0,0:0:0:0:
160,194,76224,2,0,B|132:154|136:110|136:110|116:78,2,120,0|0|0,0:0|0:0|0:0,0:0:0:0:
68,272,78317,1,0,0:0:0:0:
158,352,79014,6,0,B|194:348|194:348|254:272,1,120,6|8,0:0|0:0,0:0:0:0:
353,228,80410,2,0,B|367:289|367:289|415:337,1,120,2|8,0:0|0:0,0:0:0:0:
512,270,81805,2,0,B|488:250|488:250|496:206|468:162,1,120,2|8,0:0|0:0,0:0:0:0:
361,114,83200,1,2,0:0:0:0:
264,184,83898,1,8,0:0:0:0:
144,196,84596,6,0,B|143:264|197:320|268:324|318:291,1,240,4|0,0:0|0:0,0:0:0:0:
416,226,86689,2,0,B|441:261|445:304|431:341,2,120,8|2|8,0:0|0:0|0:0,0:0:0:0:
319,297,88782,1,0,0:0:0:0:
216,236,89479,1,8,0:0:0:0:
256,192,90177,12,0,93666,0:0:0:0:
